#TITLE:VANESSA;
#SUBTITLE:;
#ARTIST:SUZAKU;
#TITLETRANSLIT:;
#SUBTITLETRANSLIT:;
#ARTISTTRANSLIT:;
#CREDIT:;
#BANNER:vanessa_bn.jpg;
#BACKGROUND:vanessa_bg.jpg;
#LYRICSPATH:;
#CDTITLE:Mr.StepCdtitle2.png;
#MUSIC:vanessa1.ogg;
#OFFSET:1.760;
#SAMPLESTART:34.460;
#SAMPLELENGTH:21.000;
#SELECTABLE:YES;
#BPMS:0.000=185.000;
#STOPS:289.000=0.020
;
#BGCHANGES:;
// cache tags:
#FIRSTBEAT:8.000;
#LASTBEAT:289.000;
#SONGFILENAME:Songs/Music/Vanessa/vanessa.sm;
#HASMUSIC:1;
#HASBANNER:1;
#MUSICLENGTH:94.519;
// end cache tags

//---------------dance-single - Blank----------------
#NOTES:
     dance-single:
     Blank:
     Hard:
     11:
     1.000,1.000,0.423,0.063,1.000,762.000,40.000,6.000,0.000,2.000:
0000
0000
0000
0000
,
0000
0000
0000
0000
,
1001
0000
0000
0010
0000
1000
0001
0000
0000
0100
0000
0010
,
0001
0000
0000
0100
0000
1000
0010
0000
0000
0001
0000
1000
,
0010
0000
0000
0001
0000
0010
0100
0000
0000
0001
0000
1000
,
0100
0000
0000
0010
0000
0100
0001
0000
0000
0100
0000
1000
,
1001
0000
0000
0100
0000
1000
0001
0000
1000
0100
0000
1000
,
0001
0000
0100
0010
0000
1000
0001
0000
0010
0100
0000
0010
,
0001
0000
1000
0100
0000
1000
0001
0000
1000
0100
0000
1000
,
0001
0010
0100
1000
0001
1000
0100
1000
0001
0100
0010
0100
,
0011
0110
1010
0101
,
0001
1000
0010
1000
0001
1000
0010
1000
0001
1000
0100
1000
,
0001
0010
0100
0010
0001
0010
0100
0010
0001
0010
0100
0010
,
0001
0010
0100
0010
0001
0010
0001
0010
0100
1000
0100
1000
,
0100
1000
0100
0010
0100
1000
0100
0010
0100
1000
0100
0010
,
0100
1000
0100
0010
0100
1000
0010
1000
0001
0100
0010
0100
,
0001
1000
0100
1000
0010
1000
0001
1000
0100
1000
0010
1000
,
0001
0100
0010
0100
0001
0010
0100
0010
0001
0010
0100
0010
,
0001
0010
0100
1000
0010
1000
0001
0100
0010
1000
0010
1000
,
0001
1000
0100
1000
0010
1000
0010
1000
0001
0100
0010
0100
,
0010
1000
0001
1000
0100
1000
0001
1000
0010
1000
0100
1000
,
0001
0100
0010
0100
0001
0100
0010
0100
0001
0010
0100
0010
,
0001
1000
0100
1000
0010
1000
0100
1000
0010
1000
0001
0100
,
0010
0100
0001
1000
0100
1000
0001
0010
0100
0010
0001
1000
,
0100
0000
0001
1000
0010
1000
0100
1000
0001
1000
0010
1000
,
0001
1000
0100
0010
0100
1000
0001
1000
0100
1000
0001
1000
,
0010
0100
0001
1000
0010
1000
0100
0010
0001
0010
0100
0010
,
0001
1000
0100
1000
0001
1000
0010
0100
0001
0100
0010
0100
,
0001
0010
0100
1000
0000
0000
0000
0000
1001
0000
0000
0000
1000
0100
0010
0001
,
1000
0100
0010
0001
1000
0100
0010
0001
1000
0100
0010
0001
1000
0100
0010
0001
,
1000
0100
1000
0001
0000
0000
0000
0000
0110
0000
0000
0000
0001
0010
0100
1000
,
0001
0010
0100
1000
0001
0010
0100
1000
0001
1000
0010
0100
0001
0100
0010
1000
,
0001
1000
0100
0010
0001
1000
0100
1000
0010
1000
0001
1000
0010
0100
0001
0100
,
0010
0100
0001
0010
0100
0010
0001
0010
0100
1000
0010
1000
0001
1000
0010
1000
,
0100
1000
0010
1000
0001
0100
0010
0100
0010
0001
0010
0100
0010
0001
0010
0100
,
1000
0001
1000
0100
1000
0001
1000
0010
0100
0001
0100
0010
1000
0001
1000
0100
,
0001
0010
0100
1000
0000
0000
0000
0000
1100
0000
0000
0000
0010
0100
0001
1000
,
0010
0100
0001
1000
0010
0100
0001
1000
0010
0100
0001
1000
0010
0100
0001
1000
,
0010
1000
0001
0010
0100
0000
0000
0000
0011
0000
0000
0000
0001
1000
0100
1000
,
0001
1000
0010
1000
0001
1000
0100
1000
0010
1000
0001
1000
0010
1000
0001
1000
,
0100
0010
0001
0010
0100
1000
0001
1000
0010
1000
0100
1000
0010
1000
0001
1000
,
0100
0010
0001
0010
0100
0010
0001
0010
0100
0010
0001
0010
0100
1000
0001
1000
,
0100
1000
0010
1000
0001
1000
0010
1000
0001
1000
0100
1000
0001
1000
0010
1000
,
0001
0100
0010
0100
0001
0010
0100
0010
0001
0010
0100
1000
0001
1000
0100
1000
,
0101
0000
0001
1000
0000
1000
0100
0000
0000
0001
1000
0100
,
0010
0001
0010
0100
0000
0001
1000
0000
0010
0100
0000
1000
,
0001
0000
0100
1000
0000
1000
0001
0000
0100
1000
0000
1000
,
0010
0000
0100
0001
0000
0010
0001
0000
0100
1000
0100
0010
,
0001
0010
0001
0010
0001
0010
0001
0100
0001
0100
0001
0100
,
0010
0100
0010
0100
0010
1000
0100
1000
0100
1000
0100
1000
,
0010
1000
0100
1000
0010
1000
0001
0100
0010
1000
0001
1000
,
0100
0010
0001
1000
0100
1000
0001
1000
0010
0100
0001
0100
,
0001
0010
0100
1000
0100
0010
0100
0010
0100
1000
0100
1000
,
0011
0000
0100
1001
0000
0100
1001
0000
0010
0101
0000
0010
,
1001
0000
0100
0011
0000
0100
1000
0001
1000
0010
0100
0001
,
1001
0000
0100
1100
0000
0010
0110
0000
0001
0110
0000
0001
,
1100
0000
0001
1010
0000
0001
1000
0100
0010
0001
0010
0100
,
1000
0001
1000
0010
0100
0001
1000
0100
1000
0100
0010
0100
,
0010
0001
0010
0100
1000
0010
1000
0001
0100
0010
0100
0001
,
1000
0100
0010
0001
0010
0100
1000
0001
1000
0010
0100
0001
,
1000
0100
1000
0001
0010
0100
0010
0001
0010
0100
0010
0100
,
0101
0000
0001
1100
0000
0001
0110
0000
0100
1010
0000
0001
,
0110
0000
0001
0110
0000
0001
0010
0100
1000
0100
0010
0001
,
1100
0000
0001
0110
0000
0001
0110
0000
0001
1100
0000
0001
,
0110
0000
0001
1100
0000
0001
0010
0100
1000
0001
1000
0100
,
0010
0001
0010
0100
1000
0001
1000
0010
0100
0001
1000
0100
,
0010
0001
0010
0100
0010
0001
1000
0100
1000
0010
1000
0010
,
1000
0100
1000
0010
0100
0001
0100
0010
0100
0001
0010
0100
,
0010
0001
1000
0100
1000
0001
0100
0010
0100
0001
0100
0001
,
0110
1001
0220
0000
,
2332
0000
0000
0000
,
0000
0000
0000
0000
,
3223
0330
0000
0000
;

//---------------dance-single - Blank----------------
#NOTES:
     dance-single:
     Blank:
     Medium:
     9:
     0.775,0.800,0.275,0.042,1.000,483.000,26.000,4.000,0.000,1.000:
0000
0000
0000
0000
,
0000
0000
0000
0000
,
1001
0000
0000
0000
0010
0000
1000
0000
0000
0000
0001
0000
,
0100
0000
0000
0000
0001
0000
0010
0000
0000
0000
0100
0000
,
1000
0000
0000
0000
0010
0000
1000
0000
0000
0000
0100
0000
,
0001
0000
0000
0000
0001
0000
0010
0000
0000
0000
0000
0000
,
1001
0000
0000
0100
0000
1000
0010
0000
0000
1000
0000
0000
,
0001
0000
0000
0010
0000
0010
0001
0000
0000
0001
0000
0000
,
1000
0000
0010
1000
0000
1000
0001
0000
0010
0100
0000
0000
,
0001
1000
0001
1000
0001
1000
0001
1000
0001
1000
0001
1000
,
0010
1000
0100
0010
,
0001
0010
0001
0010
0000
0000
0100
1000
0100
1000
0000
0000
,
0110
0000
1000
0100
0000
0000
0010
0000
1000
0001
0000
0000
,
0010
0000
0100
0001
0000
0000
1000
0001
1000
0001
1000
0001
,
1000
0000
1000
0100
0000
0000
0010
0000
1000
0001
0000
0000
,
0010
0000
0100
0001
0000
0000
0001
0010
0001
0010
0001
0010
,
0100
0000
0100
1000
0000
1000
0010
0000
0010
1000
0000
1000
,
0001
0000
0001
0100
0000
0100
0010
0000
0010
1000
0000
0000
,
0100
1000
0100
1000
0000
0000
0010
0100
0010
0100
0000
0000
,
0001
0010
0001
0010
0000
0000
0001
1000
0001
1000
0000
0000
,
0110
0000
1000
0100
0000
1000
0010
0000
1000
0001
0000
0100
,
0010
0000
1000
0100
0000
0000
0001
0010
0001
0010
0001
0010
,
0100
0000
0100
1000
0000
1000
0010
0000
0010
1000
0000
1000
,
0001
0000
0001
0100
0000
0100
0010
1000
0100
1000
0100
1000
,
0001
0000
0001
1000
0000
1000
0100
0000
0100
0010
0000
0010
,
0001
0000
0001
1000
0000
1000
0010
0000
0001
0100
0000
0100
,
0010
1000
0010
1000
0000
0001
0100
0001
0100
0001
0000
1000
,
0010
1000
0010
1000
0000
0010
0100
0010
0100
0010
0000
0000
,
1001
0100
0011
1000
,
1100
0000
0000
0001
0000
0000
0110
0000
0000
0000
0001
0000
,
1100
0100
1001
0001
,
0110
0000
0000
0100
0000
0000
1001
0000
0000
0000
1000
0000
,
0110
0010
1100
0001
,
1010
0000
0000
0010
0000
0000
0101
0000
0000
0000
0010
0000
,
1100
0001
1010
0010
,
0110
0000
0000
0001
0000
0000
1100
0000
0000
0000
1000
0000
,
0011
0000
0000
1000
0000
1000
0010
0000
0000
0100
0000
1000
,
0001
0000
0000
0001
0000
0100
0010
0000
0000
0100
0000
1000
,
0001
0000
0000
0100
0000
1000
0001
0000
0000
0010
0000
0100
,
0001
1000
0010
0100
0000
1000
0010
0000
0000
0100
0000
1000
,
0010
0000
0000
0100
0000
1000
0001
0000
0000
0001
0000
0010
,
0001
0000
0000
0100
0000
1000
0010
0000
0000
0100
0000
1000
,
0001
0000
0000
0010
0000
1000
0100
0000
0000
0010
0000
1000
,
0100
0010
0001
0010
0000
0000
0100
0000
0000
1000
0000
1000
,
0010
0000
1000
0001
0000
0000
0110
0000
0000
0001
0000
1000
,
0100
0000
1000
0001
0000
0100
0000
0000
0000
0110
0000
0100
,
0010
0000
0001
1000
0000
0000
0110
0000
0000
1000
0000
1000
,
0100
0000
0100
1000
0000
1000
0000
0000
0001
0010
0000
0000
,
0001
0000
0001
0010
0000
0010
0100
0000
0100
1000
0000
1000
,
0100
0000
0100
0010
0000
0010
0001
0000
0001
0010
0000
0010
,
0100
0000
0100
1000
0000
1000
0100
0000
0100
0010
0000
0010
,
0001
1000
0001
1000
0001
1000
0100
0010
0100
0010
0100
0010
,
0100
0010
1000
0001
0100
0010
1000
0001
0100
0010
1000
0001
,
0100
0000
1000
0010
0000
0000
0100
0000
1000
0001
0000
0000
,
0010
0000
0100
0001
0000
0000
0001
0010
0001
1000
0100
1000
,
0010
0000
1000
0001
0000
0000
0010
0000
0100
0001
0000
0000
,
0100
0000
1000
0010
0000
0000
0001
0010
0001
0010
0100
1000
,
0100
0000
1000
0010
0000
1000
0001
0000
0100
0010
0000
1000
,
0100
0000
0010
0001
0000
0010
0100
0000
1000
0001
0000
1000
,
0010
1000
0001
1000
0000
0100
0010
0100
0001
0100
0000
0010
,
0001
0010
0001
0010
0000
0010
0100
1000
0100
1000
0100
1000
,
0010
0000
1000
0001
0000
0000
0010
0000
1000
0001
0000
0000
,
0100
0000
0001
0010
0000
1000
0100
1000
0001
1000
0010
0100
,
0001
0000
1000
0100
0000
0000
0001
0000
0010
0100
0000
0000
,
0001
0000
1000
0010
0000
0100
0001
1000
0100
0010
0001
0010
,
0100
0000
1000
0001
0000
1000
0010
0000
1000
0001
0000
0100
,
0010
0000
1000
0001
0000
0010
0100
0000
0010
0001
0000
1000
,
0001
1000
0001
1000
0001
1000
0001
1000
0001
1000
0001
1000
,
0010
0100
0010
0100
0010
0100
0010
0100
0010
0100
0010
0100
,
2002
0000
0000
0000
,
3223
0000
0000
0000
,
0000
0000
0000
0000
,
0330
0000
0000
0000
;

//---------------dance-single - Blank----------------
#NOTES:
     dance-single:
     Blank:
     Easy:
     7:
     0.588,0.647,0.476,0.042,0.492,340.000,45.000,4.000,0.000,2.000:
0000
0000
0000
0000
,
0000
0000
0000
0000
,
1001
0000
0010
0000
,
0011
0000
0000
0000
0000
0000
0100
0000
0000
0000
1000
0000
,
1010
0000
0001
0000
,
1000
0000
0000
0000
0000
0000
0011
0000
0000
0000
0100
0000
,
1100
0010
1000
0100
,
0010
0001
1000
0010
,
0001
0000
1000
0010
0000
0000
0100
0000
1000
0010
0000
0000
,
0001
0010
0100
1000
,
0110
1001
1100
0011
,
0001
1000
0001
1000
0000
0000
0100
1000
0100
1000
0000
0000
,
0010
0100
0001
1000
,
0100
0000
0000
0010
0000
0000
0001
0000
0001
0010
0000
0010
,
0100
1000
0010
1000
,
0001
0000
0000
1000
0000
0000
1000
0000
0100
0010
0000
0010
,
0100
0000
0000
0001
0000
0000
1000
0000
0000
0100
0000
0001
,
1000
0000
0000
0100
0000
0000
1000
0000
0000
0001
0000
0001
,
0010
0000
0010
0100
0000
0000
0100
0000
1000
0010
0000
0000
,
0001
0000
0100
0010
0000
0000
0001
0000
1000
0100
0000
0000
,
0010
1000
0001
1000
,
0100
0000
0000
1000
0000
0000
1000
0000
0100
0010
0000
0010
,
0001
0100
1000
0001
,
1000
0000
0000
0001
0000
0000
0010
0000
1000
0100
0000
0001
,
1000
0000
0000
0010
0000
1000
0100
0000
0000
0010
0000
0000
,
1000
0000
0000
0001
0000
0010
0100
0000
0000
0001
0000
0100
,
1000
0000
0000
0001
0000
0100
1000
0000
0000
0100
0000
0100
,
0010
0000
0000
0010
0000
1000
0001
0000
0000
0001
0000
1000
,
0001
0000
0010
0000
,
0100
0000
0000
0000
0000
0000
1000
0000
0000
0000
0001
0000
,
1100
0000
0010
0000
,
1000
0000
0000
0000
0000
0000
0100
0000
0000
0000
0010
0000
,
0011
0000
0001
0000
,
0100
0000
0000
0000
0000
0000
0010
0000
0000
0000
0001
0000
,
1010
0000
0010
0000
,
1000
0000
0000
0000
0000
0000
0001
0000
0000
0000
0010
0000
,
1001
0000
0000
0100
0000
1000
0010
0000
0000
1000
0000
0000
,
0001
0000
0000
0010
0000
0010
0001
0000
0000
0100
0000
0000
,
1000
0000
0000
0001
0000
1000
0010
0000
0000
0100
0000
0000
,
1000
0000
0000
0001
0000
0100
0010
0000
0000
1000
0000
0000
,
1000
0000
0000
0001
0000
0010
0001
0000
0000
0100
0000
0000
,
1000
0000
0000
0001
0000
1000
0010
0000
0000
0100
0000
1000
,
0001
0000
0000
0010
0000
1000
0100
0000
0000
0001
0000
0010
,
0001
0000
1000
0001
0000
0000
0100
0000
0000
1000
0000
1000
,
0001
0000
0010
1000
0000
0000
0001
0000
0000
1000
0000
0000
,
0100
0000
1000
0010
0000
0000
1000
0000
0000
0001
0000
0010
,
0001
0100
1000
0010
,
1001
0110
1001
1001
,
0100
0000
1000
0010
0000
0000
0100
0000
1000
0001
0000
0000
,
0010
0000
0100
0001
0000
0000
0001
0000
0010
0001
0000
0000
,
0001
1000
0100
1000
,
0010
0100
0010
0100
0010
0100
0010
0100
0010
0100
0010
0100
,
0010
0100
1001
0110
,
0001
0000
1000
0100
0000
0100
1000
0000
1000
0001
0000
0001
,
0100
0000
0100
0010
0000
0000
1100
0000
0000
0011
0000
0000
,
0100
0000
1000
0001
0000
1000
0100
0000
0010
0001
0000
0010
,
0100
0000
1000
0001
0000
0000
0110
0000
0000
1001
0000
0000
,
0001
0000
0010
0100
0000
1000
0001
0000
0100
0010
0000
1000
,
0001
0000
1000
0100
0000
0010
0001
0000
0010
0100
0000
0000
,
1001
0110
1100
0101
,
0110
0011
1100
1001
,
0010
0000
1000
0100
0000
1000
0001
0000
0100
0010
0000
1000
,
0100
0000
0010
0001
0000
0000
0011
0000
0000
1100
0000
0000
,
0010
0000
1000
0001
0000
0100
0010
0000
1000
0100
0000
0010
,
0001
0000
1000
0100
0000
0000
0011
0000
0000
1100
0000
0000
,
0010
0000
1000
0001
0000
0100
0010
0000
1000
0100
0000
0010
,
0001
0000
1000
0100
0000
0100
0001
0000
1000
0010
0000
0000
,
0101
0011
1100
0101
,
1001
1010
0011
1001
,
0220
0000
0000
0000
0000
0000
0000
0000
0000
0000
0000
0030
,
2302
0000
0000
0000
,
0000
0000
0000
0000
,
3013
0000
0000
0000
;
